';
pc-facile
Valutazione 4.87/ 5 (100.00%) 5838 voti




Login
Iscriviti
Cerca
Topic senza risposta
Topic attivi
Indice
Assistenza Software
Audio/Video e masterizzazione

nessun audio nel dvd video

Rispondi al post

Pagina 1 di 1


nessun audio nel dvd video
nikita75 @ 07/01/18 09:27

ho ricevuto un dvd video :eeh: sul player da tavolo lg visualizzo perfettamente il video ma non ascolto l'audio! idem nel pc
che cosa succede? questo è il text di ms info


General
Complete name : D:\VIDEO_TS\VTS_10_1.VOB
Format : MPEG-PS
File size : 161 MiB
Duration : 8 min 46 s
Overall bit rate mode : Variable
Overall bit rate : 2 573 kb/s

Video
ID : 224 (0xE0)
Format : MPEG Video
Format version : Version 2
Format profile : Main@Main
Format settings : BVOP
Format settings, BVOP : Yes
Format settings, Matrix : Default
Format settings, GOP : M=2, N=12
Duration : 8 min 46 s
Bit rate mode : Variable
Bit rate : 2 202 kb/s
Maximum bit rate : 2 164 kb/s
Width : 720 pixels
Height : 576 pixels
Display aspect ratio : 16:9
Frame rate : 25.000 FPS
Standard : PAL
Color space : YUV
Chroma subsampling : 4:2:0
Bit depth : 8 bits
Scan type : Progressive
Compression mode : Lossy
Bits/(Pixel*Frame) : 0.212
Time code of first frame : 00:00:00:00
Time code source : Group of pictures header
GOP, Open/Closed : Open
GOP, Open/Closed of first f : Closed
Stream size : 138 MiB (86%)

Audio
ID : 192 (0xC0)
Format : MPEG Audio
Format version : Version 1
Format profile : Layer 2
Duration : 8 min 46 s
Bit rate mode : Constant
Bit rate : 320 kb/s
Channel(s) : 2 channels
Sampling rate : 48.0 kHz
Compression mode : Lossy
Stream size : 20.1 MiB (12%)

Menu

General
Complete name : D:\VIDEO_TS\VTS_05_1.VOB
Format : MPEG-PS
File size : 131 MiB
Duration : 7 min 6 s
Overall bit rate mode : Variable
Overall bit rate : 2 573 kb/s

Video
ID : 224 (0xE0)
Format : MPEG Video
Format version : Version 2
Format profile : Main@Main
Format settings : BVOP
Format settings, BVOP : Yes
Format settings, Matrix : Default
Format settings, GOP : M=2, N=12
Duration : 7 min 6 s
Bit rate mode : Variable
Bit rate : 2 202 kb/s
Maximum bit rate : 2 164 kb/s
Width : 720 pixels
Height : 576 pixels
Display aspect ratio : 16:9
Frame rate : 25.000 FPS
Standard : PAL
Color space : YUV
Chroma subsampling : 4:2:0
Bit depth : 8 bits
Scan type : Progressive
Compression mode : Lossy
Bits/(Pixel*Frame) : 0.212
Time code of first frame : 00:00:00:00
Time code source : Group of pictures header
GOP, Open/Closed : Open
GOP, Open/Closed of first f : Closed
Stream size : 112 MiB (86%)

Audio
ID : 192 (0xC0)
Format : MPEG Audio
Format version : Version 1
Format profile : Layer 2
Duration : 7 min 6 s
Bit rate mode : Constant
Bit rate : 320 kb/s
Channel(s) : 2 channels
Sampling rate : 48.0 kHz
Compression mode : Lossy
Stream size : 16.3 MiB (12%)

Re: nessun audio nel dvd video
nikita75 @ 07/01/18 12:12

su questo file VOB dello stesso dvd video AUDIO e video OK
General
Complete name : D:\VIDEO_TS\VTS_06_2.VOB
Format : MPEG-PS
File size : 302 MiB
Duration : 16 min 25 s
Overall bit rate mode : Variable
Overall bit rate : 2 571 kb/s

Video
ID : 224 (0xE0)
Format : MPEG Video
Format version : Version 2
Format profile : Main@Main
Format settings : BVOP
Format settings, BVOP : Yes
Format settings, Matrix : Default
Format settings, GOP : M=2, N=12
Duration : 16 min 25 s
Bit rate mode : Variable
Bit rate : 2 200 kb/s
Maximum bit rate : 2 164 kb/s
Width : 720 pixels
Height : 576 pixels
Display aspect ratio : 16:9
Frame rate : 25.000 FPS
Standard : PAL
Color space : YUV
Chroma subsampling : 4:2:0
Bit depth : 8 bits
Scan type : Progressive
Compression mode : Lossy
Bits/(Pixel*Frame) : 0.212
Time code of first frame : 00:55:39:06
Time code source : Group of pictures header
GOP, Open/Closed : Open
su questo file Vob dello stesso DVD
Stream size : 258 MiB (86%)

Audio
ID : 192 (0xC0)
Format : MPEG Audio
Format version : Version 1
Format profile : Layer 2
Duration : 16 min 25 s
Bit rate mode : Constant
Bit rate : 320 kb/s
Channel(s) : 2 channels
Sampling rate : 48.0 kHz
Compression mode : Lossy
Delay relative to video : -184 ms
Stream size : 37.6 MiB (12%)

Menu

Re: nessun audio nel dvd video
davide72 @ 07/01/18 12:40

forse la traccia audio originale del VIDEO_TS\VTS_10_1.VOB non è mpeg1 layer2

Re: nessun audio nel dvd video
nikita75 @ 08/01/18 22:19

davide72 ha scritto:forse la traccia audio originale del VIDEO_TS\VTS_10_1.VOB non è mpeg1 layer2


Grazie Davide - sicuramente è questo il problema ;)


Rispondi al post

Pagina 1 di 1

Torna a Audio/Video e masterizzazione


Glossario | Blog | Cerca
© 2000-2018 pc-facile.com